设为首页收藏本站神话在线电影

BT神话论坛

 找回密码
 注册

QQ登录

只需一步,快速开始

搜索
登陆论坛,无广告弹窗免费杀毒软件下载
查看: 47|回复: 0

[推荐] 失物招领 Lost.And.Found.2016.1080p.WEB-DL.DD5.1.H264-FGT 3.6GB

[复制链接]
发表于 2017-1-10 16:38:07 | 显示全部楼层 |阅读模式

◎译  名 失物招领
◎片  名 Lost & Found
◎年  代 2016
◎国  家 美国/加拿大
◎类  别 悬疑/冒险/家庭
◎语  言 英语
◎上映日期 2016-02-22(美国)
◎IMDb评分  5.0/10 from 143 users
◎IMDb链接  http://www.imdb.com/title/tt3828858/
◎BT之家整理 http://www.btbtt.co
◎片  长 90分钟
◎导  演 Joseph Itaya
◎主  演 Justin Kelly
      本杰明·斯托克汉 Benjamin Stockham
      Celeste Desjardins
      杰森·帕特里克 Jason Patric
      加利·艾尔维斯 Cary Elwes
      格雷格·布瑞克 Greg Bryk
      Kim Selby
      Matt Connors
      Robert B. Kennedy
      Catherine McNally
      Deaven Brooks
      Harry Houston

◎简  介

  Sent to spend the summer on a remote and mysterious island, teenage brothers embark on a thrilling treasure hunt to restore their family's lost fortune.


Video
ID                                       : 1
Format                                   : AVC
Format/Info                              : Advanced Video Codec
Format profile                           : High@L4
Format settings, CABAC                   : Yes
Format settings, ReFrames                : 4 frames
Codec ID                                 : V_MPEG4/ISO/AVC
Duration                                 : 1h 31mn
Bit rate                                 : 5 146 Kbps
Width                                    : 1 920 pixels
Height                                   : 1 080 pixels
Display aspect ratio                     : 16:9
Frame rate mode                          : Constant
Frame rate                               : 23.976 fps
Color space                              : YUV
Chroma subsampling                       : 4:2:0
Bit depth                                : 8 bits
Scan type                                : Progressive
Bits/(Pixel*Frame)                       : 0.104
Stream size                              : 3.30 GiB (91%)
Title                                    : Lost.And.Found.2016.1080p.WEB-DL.DD5.1.H264-FGT
Language                                 : English
Default                                  : Yes
Forced                                   : No
Color range                              : Limited
Color primaries                          : BT.709
Transfer characteristics                 : BT.709
Matrix coefficients                      : BT.709

Audio
ID                                       : 2
Format                                   : AC-3
Format/Info                              : Audio Coding 3
Mode extension                           : CM (complete main)
Format settings, Endianness              : Big
Codec ID                                 : A_AC3
Duration                                 : 1h 31mn
Bit rate mode                            : Constant
Bit rate                                 : 384 Kbps
Channel(s)                               : 6 channels
Channel positions                        : Front: L C R, Side: L R, LFE
Sampling rate                            : 48.0 KHz
Frame rate                               : 31.250 fps (1536 spf)
Compression mode                         : Lossy
Stream size                              : 252 MiB (7%)
Title                                    : Lost.And.Found.2016.1080p.WEB-DL.DD5.1.H264-FGT
Language                                 : English
Default                                  : Yes
Forced                                   : No

Text
ID                                       : 3
Format                                   : UTF-8
Codec ID                                 : S_TEXT/UTF8
Codec ID/Info                            : UTF-8 Plain Text
Language                                 : English
Default                                  : Yes
Forced                                   : No

Menu
00:00:00.000                             : en:1
00:06:57.625                             : en:2
00:12:06.225                             : en:3
00:19:03.433                             : en:4
00:24:07.695                             : en:5
00:29:11.832                             : en:6
00:32:44.878                             : en:7
00:37:56.397                             : en:8
00:43:37.362                             : en:9
00:47:40.521                             : en:10
00:51:50.145                             : en:11
01:01:17.212                             : en:12
01:06:24.936                             : en:13
01:10:26.802                             : en:14
01:16:56.942                             : en:15
01:24:27.517                             : en:16


[www.hdbtt.com].Lost.And.Found.2016.1080p.WEB-DL.DD5.1.H264-FGT.torrent (72.99 KB, 下载次数: 14)
您需要登录后才可以回帖 登录 | 注册

本版积分规则

小黑屋|手机版|Archiver|BT神话论坛 ( 沪ICP备09074267号  

GMT+8, 2017-2-26 06:54 , Processed in 0.128157 second(s), 28 queries .

Powered by Discuz! X3.2

© 2001-2013 Comsenz Inc.

快速回复 返回顶部 返回列表